Info o pliku wideo


(Mietek Leja) #1

Witam.

czy jest jakiś program który pokazuje wszystkie informacje o pliku wideo zwłaszcza czy to NTSC CZY PAL np:

  • Video mode: PAL

  • Aspect ratio: 4:3

  • Quality: Custom (8000 kbit/s)

  • Resolution: 720 x 576 (CCIR-601 D1)

  • Sample format: Progressive

  • Video format: MPEG-2

  • Audio format: Stereo

  • Encoding mode: Fast Encoding (1-Pass)

  • Audio SmartEncoding ratio: 0.0 %

  • Video SmartEncoding ratio: 0.0 %

Pozdrawiam Mietek


(mozilla007) #2

Np takie ??

General

Complete name : xxx

Format : AVI

Format/Info : Audio Video Interleave

File size : 348 MiB

Duration : 41mn 54s

Overall bit rate : 1 161 Kbps

Writing application : VirtualDubMod 1.5.10.2 (build 2540/release)

Writing library : VirtualDubMod build 2540/release


Video

ID : 0

Format : MPEG-4 Visual

Format profile : Advanced Simple@L5

Format settings, BVOP : 1

Format settings, QPel : Yes

Format settings, GMC : No warppoints

Format settings, Matrix : Default (H.263)

Muxing mode : Packed bitstream

Codec ID : XVID

Codec ID/Hint : XviD

Duration : 41mn 54s

Bit rate : 1 024 Kbps

Width : 640 pixels

Height : 352 pixels

Display aspect ratio : 16:9

Frame rate : 25.000 fps

Color space : YUV

Chroma subsampling : 4:2:0

Bit depth : 8 bits

Scan type : Progressive

Compression mode : Lossy

Bits/(Pixel*Frame) : 0.182

Stream size : 307 MiB (88%)

Writing library : XviD 1.0.3 (UTC 2004-12-20)


Audio

ID : 1

Format : MPEG Audio

Format version : Version 1

Format profile : Layer 3

Mode : Joint stereo

Mode extension : MS Stereo

Codec ID : 55

Codec ID/Hint : MP3

Duration : 41mn 54s

Bit rate mode : Constant

Bit rate : 128 Kbps

Channel(s) : 2 channels

Sampling rate : 44.1 KHz

Compression mode : Lossy

Stream size : 38.4 MiB (11%)

Alignment : Split accross interleaves

Interleave, duration : 40 ms (1.00 video frame)

Interleave, preload duration : 500 ms

Jeśli tak to windows media player classic i po włączeniu kilasz na : File - > Properties i na zakładkę MediaInfo.


(scripter1) #3

mozilla007 , ten program tylko korzysta z biblioteki programu MediaInfo który wyświetla wszystkie te informacje (sporo programów korzysta z jego biblioteki, miedzy innymi podany wyżej oraz ALLPlayer).

mietek-dp , jeśli chodzi ci tylko o wyciąganie tych informacji z plików to pobierz sobie kompletny program MediaInfo zamiast kombinować z programami pośrednio korzystającymi z jego biblioteki.


(Mietek Leja) #4

Dzięki za porady. MediaInfo to jest to o co mi chodziło. Choć na razie nie wszystkie dane coś mi mówią to wreszcie wiem ze aparat nagrywa mi filmy w NTSC (Szybkość wyświetlania klatek : 29,970 kl/s) a nie PAL i dlatego nie mogę nagrać na płytę DVD.

Pozdrawiam

Mietek