FFmpeg Nagrywanie dźwięku i video


(Toitoi417) #1

witam potrzebuje komendy do ffmpeg

najlepiej żeby 1 komenda to była taka która nagrywa video i audio razem

a jak nie to 1 komenda która nagrywa dźwięk

i dróga która nagrywa video

szukałem na google.pl większość niedziała lub nagrywają sam obraz nawet na oficjalnej stronie niema


(mati75) #2

Droga?

To coś słabo szukałeś: http://www.google.pl/search?client=oper … el=suggest


(ra-v) #3

U mnie ffmpeg nagrywa z 2 fps na sekundę i dodatkowo źle zapisuje filmy… Jest totalna porażka z nagrywaczami.

Sam nagrywałem Windowsowym AviScreen, a dźwiek rejestratorem, potem to scalałem w PiTiVi, który niestety też jest czasem mało stabilny.


(Toitoi417) #4

tak , szkoda że nie przyeczytałeś 1 linijki

większość niedziała lub nagrywają sam obraz nawet na oficjalnej stronie niema

(Vatri91) #5

Miłej zabawy


(Toitoi417) #6
maciej@maciej-M61:~$ ffmpeg -f alsa -ac 2 -i pulse -f x11grab -r 30 -s 1024x768 -i :0.0 -acodec pcm_s16le -vcodec libx264 -preset ultrafast -crf 0 -threads 0 output.mkv

ffmpeg version 0.8.5-4:0.8.5-0ubuntu0.12.04.1, Copyright (c) 2000-2012 the Libav developers

  built on Jan 24 2013 18:03:14 with gcc 4.6.3

***THIS PROGRAM IS DEPRECATED***

This program is only provided for compatibility and will be removed in a future release. Please use avconv instead.

[alsa @ 0x847baa0] capture with some ALSA plugins, especially dsnoop, may hang.

[alsa @ 0x847baa0] Estimating duration from bitrate, this may be inaccurate

Input #0, alsa, from 'pulse':

  Duration: N/A, start: 1365773172.989899, bitrate: N/A

    Stream #0.0: Audio: pcm_s16le, 48000 Hz, 2 channels, s16, 1536 kb/s

[x11grab @ 0x848e3a0] device: :0.0 -> display: :0.0 x: 0 y: 0 width: 1024 height: 768

[x11grab @ 0x848e3a0] shared memory extension found

[x11grab @ 0x848e3a0] Estimating duration from bitrate, this may be inaccurate

Input #1, x11grab, from ':0.0':

  Duration: N/A, start: 1365773173.129115, bitrate: 754974 kb/s

    Stream #1.0: Video: rawvideo, bgra, 1024x768, 754974 kb/s, 30 tbr, 1000k tbn, 30 tbc

Unrecognized option 'preset'

Failed to set value 'ultrafast' for option 'preset'

(ra-v) #7

Vatri91 , to ja szukałem takiego polecenia 2 lata, a Ty siedziałeś cicho;-) U mnie działa.

Masz jakąś Ubuntową wersję 0.8.5, na openSUSE mam 1.0.5 i działa polecenie bez problemu. Nie wiem czy jest możliwość instalacji tej samej wersji co u mnie.

Może spróbuj bez przełączki -preset

ffmpeg -f alsa -ac 2 -i pulse -f x11grab -r 30 -s 1024x768 -i :0.0 -acodec pcm_s16le -vcodec libx264 -crf 0 -threads 0 output.mkv

(Vatri91) #8

Cieszę się, że Ci pomogłem. Ironią losu jest to, że u mnie przy rozdziałce 1366x768 program nagrywa z 15 fpsami… Przy innych rozdzielczościach nawet hd 60.

orzel zaktualizuj ffmpeg

tu masz ppa

ppa:jon-severinsson/ffmpeg


(Toitoi417) #9

ok aktualizuje zaraz zobacze czy działa z góry dzięki za pomoc :slight_smile:

Dodane 14.04.2013 (N) 12:27

dziękuje wszystko działa jak należy :slight_smile: