Sony Vegas Pro 10 - Problem z kodekami - Brak obrazu w nagraniach po formacie


(Hotfils3) #1

Witam!

Od dawna używam programu Shadowplay do nagrywania gier i pulpitu. Edytowałem je w Sony Vegasie bez problemowo. 2 dni temu zrobiłem sobie format dysku i przeniosłem się na SSD. Zainstalowałem sterowniki nvidii (w tym shadowplay) i zaktualizowałem, zainstalowałem i zaktualizowałem vegasa, i pobrałem kodeki K-Lite. Niestety na kodekach nie znam się wogóle więc poprostu podczas instalacji klikałem next, next, next. Jestem pewien że podczas instalacji na poprzednim systemie robiłem tak samo. I ni ztąd ni z owąd jak chcę zaimportować nowe nagrania - nagrane po formacie mam tylko dźwięk a obraz jest czarny. Stare nagrania działają bez problemu. Podaję media info starego i nowego nagrania:

 

Stare nagranie:

 

General

Complete name               : Cenzura :slight_smile:

Format                      : MPEG-4

Format profile              : Base Media / Version 2

Codec ID                    : mp42

File size                   : 182 MiB

Duration                    : 7mn 32s

Overall bit rate            : 3 371 Kbps

Encoded date                : UTC 2015-07-07 20:30:06

Tagged date                 : UTC 2015-07-07 20:30:06

 

Video

ID                          : 1

Format                      : AVC

Format/Info                 : Advanced Video Codec

Format profile              : High@L4.2

Format settings, CABAC      : Yes

Format settings, ReFrames   : 1 frame

Format settings, GOP        : M=1, N=30

Codec ID                    : avc1

Codec ID/Info               : Advanced Video Coding

Duration                    : 7mn 32s

Source duration             : 7mn 32s

Bit rate                    : 3 171 Kbps

Width                       : 1 920 pixels

Height                      : 1 080 pixels

Display aspect ratio        : 16:9

Frame rate mode             : Variable

Frame rate                  : 60.000 fps

Minimum frame rate          : 56.657 fps

Maximum frame rate          : 63.627 fps

Standard                    : PAL

Color space                 : YUV

Chroma subsampling          : 4:2:0

Bit depth                   : 8 bits

Scan type                   : Progressive

Bits/(Pixel*Frame)          : 0.025

Stream size                 : 171 MiB (94%)

Source stream size          : 171 MiB (94%)

Encoded date                : UTC 2015-07-07 20:30:06

Tagged date                 : UTC 2015-07-07 20:30:06

Color range                 : Limited

Color primaries             : BT.601 NTSC

Transfer characteristics    : BT.470 System M

Matrix coefficients         : BT.601

mdhd_Duration               : 452030

 

Audio

ID                          : 2

Format                      : AAC

Format/Info                 : Advanced Audio Codec

Format profile              : LC

Codec ID                    : 40

Duration                    : 7mn 31s

Source duration             : 7mn 31s

Bit rate mode               : Constant

Bit rate                    : 192 Kbps

Channel(s)                  : 2 channels

Channel positions           : Front: L R

Sampling rate               : 48.0 KHz

Compression mode            : Lossy

Stream size                 : 10.3 MiB (6%)

Source stream size          : 10.3 MiB (6%)

Encoded date                : UTC 2015-07-07 20:30:06

Tagged date                 : UTC 2015-07-07 20:30:06

mdhd_Duration               : 451819

 

 

Nowe naggranie:

 

General

Complete name               : E:\Moje pliki\Nagrywanie\Desktop\Desktop 2015.08.18 - 13.29.04.04.mp4

Format                      : MPEG-4

Format profile              : Base Media / Version 2

Codec ID                    : mp42

File size                   : 14.8 MiB

Duration                    : 26s 33ms

Overall bit rate            : 4 773 Kbps

Recorded date               : 2015

Encoded date                : UTC 2015-08-18 11:29:04

Tagged date                 : UTC 2015-08-18 11:29:04

 

Video

ID                          : 1

Format                      : AVC

Format/Info                 : Advanced Video Codec

Format profile              : High@L4.2

Format settings, CABAC      : Yes

Format settings, ReFrames   : 1 frame

Format settings, GOP        : M=1, N=30

Codec ID                    : avc1

Codec ID/Info               : Advanced Video Coding

Duration                    : 26s 33ms

Source duration             : 26s 33ms

Bit rate                    : 4 578 Kbps

Width                       : 1 920 pixels

Height                      : 1 080 pixels

Display aspect ratio        : 16:9

Frame rate mode             : Variable

Frame rate                  : 60.000 fps

Minimum frame rate          : 59.642 fps

Maximum frame rate          : 60.362 fps

Standard                    : PAL

Color space                 : YUV

Chroma subsampling          : 4:2:0

Bit depth                   : 8 bits

Scan type                   : Progressive

Bits/(Pixel*Frame)          : 0.037

Stream size                 : 14.2 MiB (96%)

Source stream size          : 14.2 MiB (96%)

Encoded date                : UTC 2015-08-18 11:29:04

Tagged date                 : UTC 2015-08-18 11:29:04

Color range                 : Limited

Color primaries             : BT.601 NTSC

Transfer characteristics    : BT.470 System M

Matrix coefficients         : BT.601

mdhd_Duration               : 26033

 

Audio

ID                          : 2

Format                      : AAC

Format/Info                 : Advanced Audio Codec

Format profile              : LC

Codec ID                    : 40

Duration                    : 26s 33ms

Source duration             : 25s 920ms

Bit rate mode               : Constant

Bit rate                    : 192 Kbps

Channel(s)                  : 2 channels

Channel positions           : Front: L R

Sampling rate               : 48.0 KHz

Compression mode            : Lossy

Stream size                 : 586 KiB (4%)

Source stream size          : 586 KiB (4%)

Encoded date                : UTC 2015-08-18 11:29:04

Tagged date                 : UTC 2015-08-18 11:29:04

mdhd_Duration               : 25922

 

Dzięki za wszelką pomoc!

Pozdrawiam!

 


(Dimatheus) #2

Wiertara501 , zapoznaj się, proszę, z tym poradnikiem i stroną, a następnie - korzystając z przycisku Edytuj (na dole pierwszego posta po prawej stronie) i opcji Użyj pełnego edytora - popraw tytuł wątku tak, by mówił konkretnie o problemie. Poprawnie zatytułowany wątek zwiększa szansę na uzyskanie szybkiej pomocy. Zignorowanie tej prośby będzie skutkować przeniesieniem tematu do kosza.

Pozdrawiam,

Dimatheus